Play Hard And Go Pro!
Bun venit pe www.DarkFrag.net ! Salveaza aceasta pagina si adauga serverul nostru la favorite DarkFrag.malware-site.www!

Pentru a putea vedea tot site-ul te rugam sa te inregistrezi!


O zi buna!
-= Echipa DF =-

The Princess And The Frog (2009) DVDRSCR XviD-MENTiON

In jos

The Princess And The Frog (2009) DVDRSCR XviD-MENTiON

Mesaj  Flake la data de Lun Feb 15, 2010 2:11 pm

The Princess And The Frog (2009) DVDRSCR XviD-MENTiON



Code:
*********** **** **** *** ******** *********** **** *** **********
* * * * * * * * * * * * * * * * * * * * * * * * *
* * * * * * * * * * * * * *
$ $ * $ $ * $ * *$* $ $ * $ $ * $
$ $ $ $ $ $ $ $ $ $ $ $ $ $
$ $ $ $ $ $ $ $ $ $ $ $ $ $ $ $ $ $ $ $ $ $ $
$$$$$$$$$$$ $$$ $$$ $$$ $$$ $$$$$$$$ $$$$$$$$$$$ $$$ $$$$ $$$$$$$$$$




Another Fine Release Brought to you from - IMAGiNE
http://imaginegroup.me/

********************************************************************************************************************

The Princess And The Frog DVDSCR AC3 XVID - IMAGiNE
********************************************************************************************************************

Ripper ...........: IMAGiNE IMDB Rating.......:7.9/10
Video Codec.......: XVID Release Date......:17/01/10
Audio Codec.......:MP3 Theatre Date......:11/12/09
Audio Bitrate.....:128 Runtime.......:1h 34mn
Subtitles.........:NIL Language..........:ENGLISH
Resolution...... 640 x 352 IMDb URL..........:http://www.imdb.com/title/tt0780521/

DETAILS:

Video
ID : 0
Format : MPEG-4 Visual
Format profile : Advanced Simple@L5
Format settings, BVOP : Yes
Format settings, QPel : No
Format settings, GMC : No warppoints
Format settings, Matrix : Default (H.263)
Muxing mode : Packed bitstream
Codec ID : XVID
Codec ID/Hint : XviD
Duration : 1h 30mn
Bit rate : 2 040 Kbps
Width : 672 pixels
Height : 384 pixels
Display aspect ratio : 16/9
Frame rate : 23.976 fps
Resolution : 24 bits
Colorimetry : 4:2:0
Scan type : Progressive
Bits/(Pixel*Frame) : 0.330
Stream size : 1.29 GiB (88%)
Writing library : XviD 1.2.1 (UTC 2008-12-04)

Audio
ID : 1
Format : AC-3
Format/Info : Audio Coding 3
Codec ID : 2000
Duration : 1h 30mn
Bit rate mode : Constant
Bit rate : 256 Kbps
Channel(s) : 2 channels
Channel positions : L R
Sampling rate : 48.0 KHz
Stream size : 166 MiB (11%)
Alignment : Aligned on interleaves
Interleave, duration : 42 ms (1.00 video frame)
Interleave, preload duration : 512 ms



NOTES:

IMAGiNE bringing you another release.....
Sods law....we brought you a sweet TS and the bloody DVDSCR comes out lol.Anyway we thought
we'd have ago at doing our own dvdscr rip so here it is.
We used nokias dvdr for this and kept the AC3 audio that was on it.......video didn't need tweaking too
much but needed borders cropped,resize and fix AR afterwards.....anyway enjoy a better copy.
Oh yes property of now and again throughout.....


SCREENS:


GREETS:

FLAWL3SS,ViSiON,DEViSE,FUSiON,STG,SecretMyth,BirdFlu,ELEKTRI4KA
And to all the other p2p grps past and present

Flake
---=== Owner ====---
---=== Owner ====---

Mesaje : 150
Reputatie : 0
Data de inscriere : 31/01/2010

Vezi profilul utilizatorului

Sus In jos

Sus


 
Permisiunile acestui forum:
Nu puteti raspunde la subiectele acestui forum